<?xml version="1.0" standalone="no"?>
<!DOCTYPE svg PUBLIC "-//W3C//DTD SVG 1.1//EN" "http://www.w3.org/Graphics/SVG/1.1/DTD/svg11.dtd" >
<svg xmlns="http://www.w3.org/2000/svg">
<metadata>Generated by IcoMoon</metadata>
<defs>
<font id="icomoon" horiz-adv-x="1024">
<font-face units-per-em="1024" ascent="960" descent="-64" />
<missing-glyph horiz-adv-x="1024" />
<glyph unicode="&#x20;" horiz-adv-x="512" d="" />
<glyph unicode="&#xe900;" glyph-name="unlock" d="M800 584h-424.074v164.46c0 72.532 61.010 131.54 136 131.54s136-59.008 136-131.54v-76.46h80v76.46c0 116.644-96.898 211.54-216 211.54s-216-94.896-216-211.54v-164.46h-71.926c-66.168 0-120-53.832-120-120v-408c0-66.168 53.832-120 120-120h576c66.168 0 120 53.832 120 120v408c0 66.168-53.832 120-120 120zM840 56c0-22.056-17.944-40-40-40h-576c-22.056 0-40 17.944-40 40v408c0 22.056 17.944 40 40 40h576c22.056 0 40-17.944 40-40v-408zM512 388c-40.87 0-74-33.13-74-74 0-26.096 13.52-49.020 33.926-62.196v-87.804c0-22.090 17.908-40 40-40 22.090 0 40 17.91 40 40v87.71c20.488 13.16 34.074 36.13 34.074 62.29 0 40.87-33.13 74-74 74z" />
<glyph unicode="&#xe901;" glyph-name="change" d="M297.835 875.174c-11.532-0.354-21.86-5.231-29.324-12.907l-170.677-170.758c-7.743-7.725-12.534-18.408-12.534-30.209s4.791-22.483 12.533-30.208l170.668-170.751c7.771-8.040 18.651-13.032 30.698-13.032 23.567 0 42.671 19.104 42.671 42.671 0 12.13-5.061 23.077-13.187 30.846l-0.016 0.015-97.75 97.917h665c23.587 0 42.709 19.121 42.709 42.709s-19.121 42.709-42.709 42.709v0h-664.583l97.333 97.583c8.080 7.776 13.1 18.683 13.1 30.763 0 23.567-19.104 42.671-42.671 42.671-0.444 0-0.886-0.007-1.326-0.020l0.064 0.002zM724.918 448.426c-23.417-0.196-42.325-19.225-42.325-42.67 0-11.904 4.875-22.67 12.737-30.41l97.922-98.004h-665.167c-23.164-0.524-41.742-19.426-41.742-42.667s18.578-42.143 41.694-42.666l0.049-0.001h664.917l-97.667-97.917c-9.153-7.873-14.914-19.468-14.914-32.409 0-23.567 19.104-42.671 42.671-42.671 12.941 0 24.537 5.761 32.362 14.858l0.047 0.056 170.667 170.666c7.669 7.713 12.409 18.345 12.409 30.084s-4.74 22.371-12.411 30.086l-170.665 170.748c-7.76 7.971-18.594 12.916-30.583 12.917v0z" />
<glyph unicode="&#xe902;" glyph-name="technical-support" d="M938.938 704.828h-10.38c-6.136 21.549-14.708 42.225-25.603 61.772l7.378 7.38c8.442 8.438 13.088 19.692 13.088 31.689s-4.646 23.249-13.094 31.697l-49.159 49.101c-8.442 8.494-19.709 13.17-31.729 13.17-12.018 0-23.287-4.676-31.687-13.128l-7.37-7.37c-19.562 10.93-40.245 19.518-61.78 25.651v10.378c0.002 24.719-20.107 44.831-44.829 44.831h-69.502c-24.719 0-44.831-20.111-44.831-44.831v-10.378c-21.531-6.132-42.227-14.722-61.828-25.659l-7.336 7.336c-8.446 8.494-19.713 13.17-31.731 13.168-12.018 0-23.285-4.678-31.685-13.128l-49.149-49.151c-8.442-8.438-13.088-19.692-13.088-31.689s4.646-23.249 13.086-31.687l7.376-7.378c-10.942-19.608-19.518-40.287-25.619-61.774h-10.418c-24.719 0-44.831-20.111-44.831-44.831v-69.562c0-24.719 20.111-44.831 44.831-44.831h10.418c6.102-21.485 14.678-42.165 25.619-61.774l-7.376-7.378c-8.442-8.438-13.088-19.692-13.088-31.689 0-11.996 4.646-23.249 13.086-31.687l49.111-49.111c8.442-8.494 19.707-13.17 31.725-13.17h0.002c12.018 0 23.287 4.676 31.689 13.128l7.376 7.378c19.622-10.948 40.317-19.526 61.828-25.625v-10.414c0-24.719 20.111-44.831 44.831-44.831h69.502c24.719 0 44.831 20.111 44.831 44.831v10.414c21.517 6.102 42.197 14.676 61.78 25.617l7.328-7.328c8.442-8.494 19.709-13.17 31.727-13.17 12.020 0 23.289 4.678 31.681 13.12l49.215 49.161c8.44 8.44 13.086 19.693 13.086 31.689 0 11.998-4.646 23.249-13.086 31.687l-7.38 7.38c10.896 19.548 19.466 40.223 25.603 61.772h10.38c24.719 0 44.831 20.111 44.831 44.831v69.562c0.002 24.719-20.107 44.831-44.829 44.831zM688.605 335.264c0-2.62-2.212-4.832-4.832-4.832h-69.502c-2.62 0-4.832 2.212-4.832 4.832v152.048c0 8.364-5.204 15.844-13.044 18.752-53.743 19.931-89.85 71.654-89.85 128.705 0 45.213 22.513 87.596 60.212 113.365 1.692 1.156 3.188 2.1 4.496 2.874-0.072-2.6-0.256-5.072-0.354-6.362-0.15-2.030-0.27-3.632-0.27-5.222v-94.392c0-43.325 33.853-79.508 77.066-82.374 0.882-0.058 1.766-0.058 2.648 0 43.183 2.864 77.010 39.047 77.010 82.374v94.392c0 1.582-0.118 3.174-0.266 5.192-0.096 1.296-0.28 3.782-0.35 6.394 1.304-0.772 2.792-1.714 4.478-2.868 37.709-25.775 60.222-68.158 60.222-113.371 0-57.045-36.087-108.769-89.798-128.707-7.838-2.91-13.040-10.388-13.040-18.75v-152.050zM943.77 590.435c0-2.574-2.258-4.832-4.832-4.832h-25.907c-9.344 0-17.444-6.47-19.506-15.584-6.334-27.985-17.304-54.449-32.605-78.654-4.996-7.904-3.848-18.216 2.764-24.827l18.37-18.37c1.192-1.192 1.37-2.644 1.37-3.404 0-0.758-0.178-2.212-1.364-3.396l-49.257-49.203c-1.126-1.132-2.452-1.37-3.364-1.37-0.91 0-2.234 0.238-3.402 1.414l-18.37 18.37c-6.622 6.62-16.944 7.76-24.847 2.752-17.072-10.818-35.243-19.402-54.217-25.745v86.424c62.046 28.875 102.837 91.8 102.837 160.762 0 58.433-29.029 113.159-77.648 146.392-7.448 5.090-30.097 20.575-49.907 9.174-19.452-11.2-17.514-37.453-16.688-48.665 0.072-0.974 0.142-1.792 0.158-2.25v-94.392c0-21.891-16.732-40.245-38.335-42.355-21.633 2.112-38.391 20.465-38.391 42.355l-0.002 94.248c0.018 0.602 0.090 1.42 0.162 2.398 0.834 11.206 2.788 37.445-16.648 48.651-19.801 11.422-42.485-4.070-49.947-9.164-48.623-33.235-77.65-87.962-77.65-146.394 0-68.972 40.813-131.901 102.893-160.768v-86.418c-18.978 6.344-37.171 14.932-54.293 25.755-3.292 2.080-6.996 3.094-10.682 3.094-5.166 0-10.29-1.998-14.148-5.858l-18.408-18.41c-1.126-1.134-2.452-1.372-3.364-1.372s-2.234 0.238-3.402 1.412l-49.151 49.153c-1.194 1.192-1.372 2.646-1.372 3.404 0 0.76 0.178 2.212 1.372 3.406l18.368 18.37c6.612 6.612 7.76 16.924 2.764 24.827-15.38 24.333-26.347 50.785-32.597 78.62-2.048 9.13-10.156 15.62-19.514 15.62h-25.963c-2.574 0-4.832 2.258-4.832 4.832v69.562c0 2.62 2.212 4.832 4.832 4.832h25.963c9.358 0 17.464 6.49 19.514 15.62 6.25 27.835 17.216 54.289 32.597 78.62 4.996 7.904 3.848 18.216-2.764 24.827l-18.37 18.37c-1.192 1.192-1.37 2.644-1.37 3.404s0.178 2.212 1.372 3.406l49.193 49.195c1.126 1.132 2.45 1.37 3.362 1.37s2.236-0.238 3.404-1.412l18.368-18.37c6.616-6.614 16.928-7.76 24.829-2.764 24.301 15.364 50.783 26.353 78.7 32.659 9.12 2.060 15.594 10.162 15.594 19.508v25.905c0 2.62 2.212 4.832 4.832 4.832h69.502c2.62 0 4.832-2.212 4.832-4.832v-25.909c0-9.348 6.474-17.448 15.592-19.508 27.943-6.312 54.395-17.296 78.624-32.649 7.906-5.008 18.226-3.868 24.847 2.752l18.41 18.412c1.126 1.132 2.452 1.37 3.362 1.37 0.912 0 2.236-0.238 3.412-1.42l49.203-49.145c1.192-1.192 1.37-2.644 1.37-3.404s-0.178-2.212-1.372-3.406l-18.368-18.37c-6.612-6.612-7.76-16.924-2.764-24.827 15.3-24.205 26.271-50.667 32.605-78.654 2.062-9.114 10.162-15.584 19.506-15.584h25.907c2.62 0 4.832-2.212 4.832-4.832v-69.56zM765.553 79.38c-7.81-7.81-7.81-20.473 0-28.285 3.906-3.904 9.024-5.858 14.142-5.858s10.236 1.954 14.142 5.858l0.056 0.056c7.81 7.81 7.782 20.445-0.030 28.255s-20.499 7.78-28.309-0.026zM858.202 273.117l-158.778-81.54c-13.46 13.94-32.319 22.635-53.181 22.635h-108.789c-6.092 0-7.58 0.484-7.68 0.518-0.882 0.464-3.67 3.084-5.908 5.188l-0.992 0.932c-88.014 82.852-162.362 77.602-246.91 44.235-13.68-5.4-13.944-5.412-27.681-5.998l-24.599-0.018c-7.008 21.141-26.951 36.441-50.413 36.441h-79.99c-29.253 0-53.051-23.825-53.051-53.109v-209.933c0-29.251 23.797-53.051 53.051-53.051h79.99c23.459 0 43.401 15.282 50.411 36.397h44.999c3.974 0 3.974 0 8.596-1.302 1.68-0.474 3.724-1.050 6.364-1.76l206.983-55.375c9.124-2.464 17.492-4.89 25.585-7.234 26.519-7.684 48.811-14.144 72.044-14.144 26.259 0 53.717 8.252 89.83 32.319 0.174 0.116 0.348 0.236 0.52 0.358l39.515 28.177c8.994 6.414 11.086 18.902 4.672 27.895-6.414 8.996-18.906 11.086-27.893 4.672l-39.253-27.989c-52.407-34.857-74.66-28.413-128.303-12.87-8.264 2.394-16.808 4.87-26.329 7.442l-206.999 55.377c-2.424 0.652-4.326 1.188-5.886 1.628-7.552 2.128-10.376 2.8-19.444 2.8h-42.303v163.244h21.613c0.288 0 0.572 0.006 0.86 0.018l1.14 0.048c16.766 0.716 21.455 1.174 40.659 8.756 74.256 29.303 131.575 32.785 204.833-36.179l0.99-0.93c12.52-11.766 19.729-16.558 40.981-16.558h108.789c12.768 0 23.901-7.088 29.705-17.53 0.062-0.116 0.134-0.226 0.198-0.342 2.592-4.794 4.068-10.278 4.068-16.102 0-18.702-15.238-33.915-33.969-33.915h-176.31c-11.044 0-19.999-8.954-19.999-19.999s8.956-19.999 19.999-19.999h176.31c40.787 0 73.968 33.157 73.968 73.914 0 5.54-0.632 10.932-1.792 16.126l158.052 81.168c14.96 7.68 35.415 6.856 45.571-9.624 8.984-14.526 4.042-33.833-11.488-44.905l-69.332-49.379c-8.998-6.408-11.098-18.896-4.69-27.893 3.902-5.478 10.058-8.4 16.308-8.4 4.014 0 8.066 1.206 11.584 3.71l69.34 49.385c32.931 23.477 42.515 65.832 22.311 98.493-19.867 32.243-61.942 42.647-97.878 24.199zM186.379 32.47c0-7.076-6.002-13.052-13.108-13.052h-79.99c-7.076 0-13.052 5.978-13.052 13.052v209.931c0 7.228 5.856 13.11 13.052 13.11h79.99c7.106 0 13.108-6.002 13.108-13.11z" />
<glyph unicode="&#xe903;" glyph-name="padlock" d="M1020.826 701.416c-7.41 14.818-25.426 20.826-40.248 13.416l-120-60c-14.82-7.41-20.826-25.43-13.416-40.25 7.408-14.818 25.426-20.826 40.248-13.416l120 60c14.82 7.41 20.826 25.43 13.416 40.25zM1007.41 354.834l-120 60c-14.812 7.406-32.836 1.404-40.248-13.416-7.41-14.82-1.404-32.84 13.416-40.25l120-60c14.82-7.41 32.84-1.402 40.248 13.416 7.41 14.82 1.404 32.84-13.416 40.25zM691.996 478h-451.998v152c0 82.71 68.188 150 152 150 82.71 0 150-67.29 150-150v-60c0-16.568 13.432-30 30-30h120c16.568 0 30 13.432 30 30v60c0 181.96-148.036 329.998-329.998 329.998-183.066-0.002-332-148.038-332-330v-157.16c-34.918-12.382-60-45.728-60-84.838v-361.998c0-49.626 40.374-90 90-90h601.996c49.626 0 90 40.374 90 90v361.998c0 49.626-40.374 90-90 90zM120 629.998c0 148.878 122.020 269.998 271.998 269.998 148.878 0 269.998-121.122 269.998-269.998v-30h-60v30c0 115.794-94.206 209.998-209.998 209.998-116.136 0-211.998-94.24-211.998-209.998v-152h-60v152zM721.996 26.002c0-16.542-13.458-30-30-30h-601.996c-16.542 0-30 13.458-30 30v361.998c0 16.542 13.458 30 30 30 27.976 0 577.766 0 601.996 0 16.542 0 30-13.458 30-30v-361.998zM391.998 358c-49.626 0-90-40.374-90-90 0-39.11 25.082-72.456 60-84.84v-97.16c0-16.568 13.432-30 30-30s30 13.432 30 30v97.16c34.918 12.384 60 45.73 60 84.84 0 49.626-40.374 90-90 90zM391.998 238.002c-16.542 0-30 13.458-30 30s13.458 30 30 30 30-13.458 30-30-13.458-30-30-30zM993.994 538h-120c-16.568 0-30-13.432-30-30s13.432-30 30-30h120c16.568 0 30 13.432 30 30s-13.432 30-30 30z" />
<glyph unicode="&#xe904;" glyph-name="rocket" d="M1017.042 929.503c-2.337 11.989-11.709 21.361-23.701 23.699-147.919 28.844-334.489-35.508-493.635-166.195-41.369 20.081-88.918 27.544-134.722 20.967-49.841-7.156-94.979-29.733-130.535-65.289l-193.752-193.752c-8.208-8.208-10.946-20.419-7.020-31.345 3.925-10.928 13.801-18.608 25.36-19.718l196.988-18.93c-3.613-7.706-7.092-15.429-10.4-23.169-16.052-37.568-8.082-78.846 20.803-107.73l145.449-145.449c19.018-19.018 43.406-28.969 68.571-28.969 13.057 0 26.326 2.679 39.159 8.164 7.85 3.353 15.68 6.882 23.495 10.552l18.98-197.514c1.112-11.555 8.792-21.433 19.718-25.358 3.309-1.188 6.736-1.766 10.134-1.766 7.82 0 15.489 3.063 21.211 8.786l193.754 193.752c70.382 70.384 87.422 177.43 44.092 265.742 131.175 159.662 194.616 347.016 166.051 493.521zM599.639 291.816l-243.985 243.985c32.763 51.66 72.62 101.303 118.175 146.859 77.377 77.377 164.697 136.777 251.362 173.801l194.944-194.944c-29.525-69.246-73.312-139.077-129.341-203.904-14.033-16.236-28.936-32.257-44.296-47.619-45.556-45.558-95.199-85.417-146.859-118.177zM919.094 900.165c14.413 0 28.552-0.852 42.322-2.577 6.659-53.512-0.018-112.825-18.574-173.943l-155.539 155.537c45.348 13.767 89.8 20.983 131.79 20.983zM128.091 551.494l148.773 148.775c45.148 45.148 112.589 60.73 172.511 42.287-6.041-5.731-12.033-11.551-17.962-17.48-57.819-57.819-107.162-121.967-145.495-188.748zM496.035 236.942c-14.773-6.313-30.377-3.299-41.741 8.062l-145.449 145.449c-11.361 11.361-14.373 26.964-8.060 41.741 7.144 16.716 15.079 33.369 23.755 49.891l221.386-221.388c-16.522-8.676-33.175-16.61-49.891-23.755zM764.484 212.652l-148.777-148.775-15.219 158.386c66.667 38.307 130.703 87.584 188.428 145.311 5.997 5.995 11.895 12.109 17.74 18.272 19.046-60.101 3.809-127.213-42.173-173.195zM730.654 666.814c-38.185 38.183-100.313 38.181-138.495 0-38.183-38.183-38.183-100.311 0-138.495 18.496-18.496 43.088-28.684 69.248-28.684 26.158 0 50.751 10.188 69.246 28.684 38.181 38.183 38.181 100.311 0 138.495zM688.237 570.735c-7.166-7.166-16.696-11.114-26.83-11.114-10.136 0-19.666 3.947-26.832 11.114-14.793 14.795-14.793 38.867 0 53.662 7.396 7.396 17.114 11.096 26.83 11.096 9.718 0 19.436-3.699 26.832-11.096 14.793-14.795 14.793-38.867 0-53.662zM293.212 229c-11.711 11.713-30.703 11.713-42.416 0l-241.798-241.798c-11.713-11.713-11.713-30.703 0-42.416 5.857-5.857 13.533-8.786 21.207-8.786s15.353 2.927 21.207 8.786l241.798 241.798c11.715 11.713 11.715 30.703 0.002 42.416zM115.466 200.996l81.668 81.666c11.713 11.713 11.713 30.703 0 42.416-11.709 11.713-30.701 11.711-42.416 0l-81.668-81.666c-11.713-11.713-11.713-30.703 0-42.416 5.857-5.857 13.533-8.786 21.207-8.786 7.676 0.002 15.355 2.931 21.209 8.786zM346.876 132.922l-81.666-81.666c-11.713-11.713-11.713-30.703 0-42.416 5.857-5.857 13.533-8.786 21.207-8.786s15.353 2.927 21.207 8.786l81.666 81.666c11.713 11.713 11.713 30.703 0 42.416-11.711 11.713-30.703 11.713-42.414 0z" />
<glyph unicode="&#xe905;" glyph-name="choice" d="M829.157 962h-185.328c-43.227 0-78.391-35.164-78.391-78.383v-185.336c0-43.219 35.164-78.383 78.391-78.383h185.328c43.219 0 78.383 35.164 78.383 78.383v185.336c0.008 43.219-35.156 78.383-78.383 78.383zM847.548 698.281c0-10.133-8.25-18.383-18.391-18.383h-185.328c-10.141 0-18.383 8.25-18.383 18.383v185.336c0 10.133 8.242 18.383 18.383 18.383h185.328c10.141 0 18.391-8.25 18.391-18.383zM685.594 544.999c-14.398 0-27.969-3.57-39.883-9.875-15.352 23-41.531 38.172-71.195 38.172-15.32 0-29.711-4.047-42.164-11.133-15.586 21.164-40.672 34.922-68.914 34.922-8.891 0-17.469-1.359-25.539-3.891v26.703h7.125c43.227 0 78.391 35.164 78.391 78.391v185.328c0 43.219-35.164 78.383-78.391 78.383h-185.328c-43.219 0-78.383-35.164-78.383-78.383v-185.336c0-43.219 35.164-78.383 78.383-78.383h7.133v-185.844c-4.641 4.648-9.852 8.797-15.57 12.352-18.43 11.445-40.039 15.43-61.227 11.352-22.789-0.914-43.234-10.859-56.516-27.602-13.953-17.586-18.797-41.164-13.305-64.695l39.43-168.727c22.484-140.774 132.297-246.094 136.977-250.524 5.57-5.273 12.953-8.211 20.625-8.211h337.423c10.102 0 19.516 5.086 25.070 13.523 59.758 90.906 91.36 196.454 91.367 305.235l0.031 202.704s0 0 0 0.008c0 47.164-38.375 85.531-85.539 85.531zM329.843-2.002c-24.18 25.719-95.43 108.766-111.11 209.125-0.117 0.742-0.258 1.477-0.43 2.195l-39.672 169.789c-1.32 5.672-0.656 10.563 1.883 13.758 2.531 3.195 6.875 4.867 12.672 5.422 2.914 0.273 4.125 0.617 6.828 0.781 6.805 0.414 13.781-0.031 19.578-3.633s9.836-9.242 11.391-15.883l34.219-146.453c2.859-12.227 13.031-21.383 25.484-22.945l2.406-0.297c8.539-1.070 17.125 1.578 23.578 7.273s10.148 13.891 10.148 22.492v476.79c0 14.086 11.453 25.539 25.539 25.539 14.078 0 25.539-11.453 25.539-25.539v-281.321c0-16.563 13.43-30 30-30s30 13.438 30 30v76.453c0 14.086 11.453 25.539 25.539 25.539 14.078 0 25.539-11.453 25.539-25.539v-79.867c0-16.57 13.43-30 30-30s30 13.43 30 30v56.078c0 14.078 11.461 25.539 25.539 25.539 14.086 0 25.539-11.461 25.539-25.539v-77.031c0-16.563 13.43-30 30-30s30 13.438 30 30v48.734c0 14.086 11.461 25.547 25.539 25.547 14.086 0 25.539-11.461 25.539-25.539l-0.031-202.704c-0.008-91.695-25.18-180.813-72.93-258.766zM241.312 698.281v185.336c0 10.133 8.25 18.383 18.383 18.383h185.328c10.141 0 18.391-8.25 18.391-18.383v-185.336c0-10.133-8.25-18.383-18.391-18.383h-7.125v36.524c0 47.164-38.375 85.539-85.539 85.539s-85.539-38.375-85.539-85.539v-36.524h-7.125c-10.133 0-18.383 8.25-18.383 18.383z" />
<glyph unicode="&#xe906;" glyph-name="wallet" d="M784 448c0-22.091-17.909-40-40-40s-40 17.909-40 40c0 22.091 17.909 40 40 40s40-17.909 40-40zM200 8h544c71.174 0 137.548 38.306 173.218 99.97 11.062 19.122 4.528 43.592-14.594 54.654-19.124 11.062-43.592 4.528-54.654-14.594-21.418-37.028-61.258-60.030-103.97-60.030h-544c-66.168 0-120 53.832-120 120v480c0 66.168 53.832 120 120 120h544c42.712 0 82.552-23.002 103.97-60.030 11.062-19.124 35.53-25.656 54.654-14.594 19.122 11.062 25.656 35.53 14.594 54.654-35.67 61.664-102.044 99.97-173.218 99.97h-544c-110.28 0-200-89.72-200-200v-480c0-110.28 89.72-200 200-200zM904 648h-160c-110.28 0-200-89.72-200-200s89.72-200 200-200h160c66.168 0 120 53.832 120 120v160c0 66.168-53.832 120-120 120zM944 368c0-22.056-17.944-40-40-40h-160c-66.168 0-120 53.832-120 120s53.832 120 120 120h160c22.056 0 40-17.944 40-40z" />
<glyph unicode="&#xe907;" glyph-name="click" d="M504-24c-1.56 0-3.144 0.112-4.736 0.344-12.248 1.84-22.36 10.592-25.92 22.472l-192 640c-3.376 11.264-0.296 23.488 8.032 31.816 8.344 8.328 20.64 11.424 31.816 8.032l640-192c11.872-3.56 20.624-13.672 22.472-25.92 1.832-12.264-3.592-24.488-13.904-31.36l-159.512-106.344 164.392-164.408c12.504-12.504 12.504-32.752 0-45.248l-128-128c-12.504-12.504-32.752-12.504-45.248 0l-164.408 164.392-106.344-159.512c-6-9-16.048-14.264-26.64-14.264zM632 232c8.456 0 16.592-3.344 22.624-9.376l169.376-169.376 82.744 82.752-169.368 169.376c-6.784 6.784-10.16 16.232-9.216 25.784 0.936 9.528 6.112 18.16 14.096 23.472l135.408 90.264-517.92 155.376 155.376-517.92 90.264 135.408c5.312 7.984 13.936 13.16 23.472 14.096 1.048 0.096 2.096 0.144 3.144 0.144zM206.624 753.376c12.504 12.504 12.504 32.752 0 45.248l-64 64c-12.504 12.504-32.752 12.504-45.248 0s-12.504-32.752 0-45.248l64-64c6.248-6.248 14.432-9.376 22.624-9.376s16.376 3.128 22.624 9.376zM184 648c0 17.672-14.328 32-32 32h-96c-17.672 0-32-14.328-32-32s14.328-32 32-32h96c17.672 0 32 14.328 32 32zM142.624 433.376l64 64c12.504 12.504 12.504 32.752 0 45.248s-32.752 12.504-45.248 0l-64-64c-12.504-12.504-12.504-32.752 0-45.248 6.248-6.248 14.432-9.376 22.624-9.376s16.376 3.128 22.624 9.376zM462.624 753.376l64 64c12.504 12.504 12.504 32.752 0 45.248s-32.752 12.504-45.248 0l-64-64c-12.504-12.504-12.504-32.752 0-45.248 6.248-6.248 14.432-9.376 22.624-9.376s16.376 3.128 22.624 9.376zM344 808v96c0 17.672-14.328 32-32 32s-32-14.328-32-32v-96c0-17.672 14.328-32 32-32s32 14.328 32 32z" />
<glyph unicode="&#xe908;" glyph-name="funding" d="M448.006 192.001c-11.781 0-21.336 9.531-21.336 21.328 0 35.289 28.711 64 64 64h191.999c23.531 0 42.664 19.141 42.664 42.672s-19.133 42.664-42.664 42.664h-191.999c-2.281 0-4.562 0.383-6.742 1.109l-60.711 20.226h-103.21c-35.078 0-68.437-13.273-91.585-36.422l-21.336-21.328c-8.336-8.344-21.82-8.344-30.164 0-8.344 8.336-8.344 21.82 0 30.164l21.336 21.336c31.078 31.078 75.453 48.914 121.749 48.914h106.664c2.281 0 4.562-0.383 6.742-1.109l60.711-20.226h188.546c47.062 0 85.336-38.265 85.336-85.328s-38.273-85.336-85.336-85.336h-191.999c-11.758 0-21.336-9.555-21.336-21.336 0-11.797-9.555-21.328-21.328-21.328zM335.084 70.252l-30.164 30.164 42.664 42.664c3.992 4.016 9.43 6.25 15.086 6.25h291.053l226.061 184.96 94.554 151.273c-4.992 2.922-10.242 5.102-14.336 5.102-18.906 0-33.836 0-70.25-36.414l-42.672-42.672c-1.234-1.234-2.602-2.297-4.094-3.195l-106.664-64-21.953 36.586 104.421 62.656 40.812 40.812c45.289 45.289 71.211 48.89 100.398 48.89 29.328 0 54.929-24.766 57.75-27.578 7.016-7.023 8.273-17.969 3.008-26.39l-106.671-170.671c-1.234-1.961-2.773-3.727-4.586-5.203l-234.663-191.999c-3.82-3.117-8.602-4.82-13.508-4.82h-289.827zM277.335-63.997c-5.461 0-10.922 2.086-15.078 6.25-8.344 8.336-8.344 21.82 0 30.164l70.25 70.25-225.835 225.835-70.25-70.25c-8.344-8.344-21.828-8.344-30.164 0-8.344 8.336-8.344 21.82 0 30.164l85.328 85.336c8.344 8.336 21.828 8.336 30.172 0l255.999-255.999c8.336-8.344 8.336-21.828 0-30.172l-85.336-85.328c-4.164-4.164-9.625-6.25-15.086-6.25zM767.981 469.328c-3.648 0-7.336 0.922-10.711 2.906-10.195 5.93-13.633 19.008-7.703 29.18 26.008 44.656 39.765 92.57 39.765 138.585 0 152.913-124.413 277.327-277.327 277.327-152.921 0-277.335-124.413-277.335-277.327 0-46.015 13.758-93.929 39.765-138.601 5.93-10.18 2.477-23.234-7.703-29.187-10.195-5.906-23.226-2.5-29.18 7.703-29.781 51.179-45.547 106.539-45.547 160.085 0 176.444 143.546 319.998 319.998 319.998 176.444 0 319.998-143.554 319.998-319.998 0-53.547-15.75-108.906-45.57-160.070-3.945-6.805-11.117-10.602-18.453-10.602zM554.669 490.664h-85.336c-35.281 0-64 28.711-64 64 0 11.773 9.562 21.336 21.336 21.336s21.336-9.562 21.336-21.336c0-11.758 9.578-21.336 21.328-21.336h85.336c11.773 0 21.336 9.578 21.336 21.336v42.664c0 11.758-9.562 21.336-21.336 21.336h-85.336c-35.281 0-64 28.711-64 64v42.664c0 35.289 28.719 64 64 64h85.336c35.289 0 64-28.711 64-64 0-11.773-9.539-21.328-21.336-21.328s-21.328 9.555-21.328 21.328c0 11.758-9.562 21.336-21.336 21.336h-85.336c-11.75 0-21.328-9.578-21.328-21.336v-42.664c0-11.758 9.578-21.336 21.328-21.336h85.336c35.289 0 64-28.711 64-64v-42.664c0-35.289-28.711-64-64-64zM512.005 448c-11.781 0-21.336 9.555-21.336 21.328v341.334c0 11.773 9.555 21.336 21.336 21.336 11.773 0 21.328-9.562 21.328-21.336v-341.334c0-11.773-9.555-21.328-21.328-21.328zM682.669 661.327h42.664v-42.664h-42.664zM298.67 661.327h42.664v-42.664h-42.664z" />
<glyph unicode="&#xe909;" glyph-name="coins" d="M672 928c-170.624 0-352-56.064-352-160v-128c0-17.664 14.336-32 32-32s32 14.336 32 32v33.344c67.904-42.816 180.032-65.344 288-65.344s220.096 22.528 288 65.344v-33.344c0-31.296-78.72-81.216-226.688-93.568-17.536-1.408-30.656-16.96-29.184-34.56 1.344-16.704 15.36-29.312 31.808-29.312 0.96 0 1.792 0.064 2.752 0.128 83.328 6.976 166.336 28.544 221.312 63.552v-34.24c0-27.328-57.984-66.624-165.568-85.632-17.344-3.072-28.992-19.712-25.92-37.056 2.752-15.488 16.256-26.432 31.424-26.432 1.856 0 3.776 0.128 5.632 0.512 65.088 11.456 117.184 30.208 154.432 54.016v-33.408c0-27.328-57.984-66.624-165.568-85.632-17.344-3.072-28.992-19.712-25.92-37.056 2.752-15.488 16.256-26.432 31.424-26.432 1.856 0 3.776 0.128 5.632 0.512 65.088 11.456 117.184 30.272 154.432 54.016v-33.408c0-27.328-57.984-66.624-165.568-85.632-17.344-3.072-28.992-19.712-25.92-37.056 2.752-15.488 16.256-26.432 31.424-26.432 1.856 0 3.776 0.128 5.632 0.512 65.088 11.456 117.184 30.272 154.432 54.016v-33.408c0-31.296-78.72-81.216-226.688-93.568-17.536-1.408-30.656-16.96-29.184-34.56 1.344-16.704 15.36-29.312 31.808-29.312 0.96 0 1.792 0.064 2.752 0.128 142.016 11.904 285.312 65.088 285.312 157.312v640c0 103.936-181.376 160-352 160zM672 672c-175.808 0-288 56.896-288 96s112.192 96 288 96 288-56.896 288-96-112.192-96-288-96zM352 544c-170.624 0-352-56.064-352-160v-256c0-103.936 181.376-160 352-160s352 56.064 352 160v256c0 103.936-181.376 160-352 160zM640 128c0-39.104-112.192-96-288-96s-288 56.896-288 96v33.344c67.904-42.816 180.032-65.344 288-65.344s220.096 22.528 288 65.344v-33.344zM640 256c0-39.104-112.192-96-288-96s-288 56.896-288 96v33.344c67.904-42.816 180.032-65.344 288-65.344s220.096 22.528 288 65.344v-33.344zM352 288c-175.808 0-288 56.896-288 96s112.192 96 288 96 288-56.896 288-96-112.192-96-288-96z" />
<glyph unicode="&#xe90a;" glyph-name="add-user" d="M735.14 446.182c-19.678 9.354-39.756 17.412-60.186 24.162 66.166 49.664 109.046 128.746 109.046 217.656 0 149.98-122.018 272-272 272s-272-122.020-272-272c0-89.008 42.976-168.168 109.266-217.822-60.736-19.996-117.726-51.11-167.606-92.138-91.464-75.234-155.058-180.172-179.064-295.486-7.524-36.132 1.49-73.244 24.726-101.816 23.122-28.432 57.408-44.738 94.064-44.738h492.614c22.092 0 40 17.908 40 40s-17.908 40-40 40h-492.614c-17.076 0-27.378 9.532-31.998 15.212-7.978 9.81-11.066 22.58-8.472 35.038 41.51 199.39 217.382 345.042 420.48 349.954 3.518-0.136 7.052-0.204 10.604-0.204 3.586 0 7.156 0.070 10.708 0.208 62.24-1.46 122.1-15.664 178.088-42.28 19.954-9.48 43.814-0.998 53.298 18.956 9.484 19.952 1 43.814-18.954 53.298zM521.756 496.246c-3.246 0.058-6.498 0.088-9.756 0.088-3.228 0-6.456-0.032-9.68-0.092-101.39 5.058-182.32 89.134-182.32 191.758 0 105.87 86.13 192 192 192s192-86.13 192-192c0-102.598-80.89-186.658-182.244-191.754zM984 166h-110v110c0 22.092-17.908 40-40 40s-40-17.908-40-40v-110h-110c-22.092 0-40-17.908-40-40s17.908-40 40-40h110v-110c0-22.092 17.908-40 40-40s40 17.908 40 40v110h110c22.092 0 40 17.908 40 40s-17.908 40-40 40z" />
<glyph unicode="&#xe90b;" glyph-name="click-1" d="M794.982 521.17c-11.080 0-21.676-2.084-31.446-5.846-10.806 36.244-44.424 62.754-84.134 62.754-11.422 0-22.33-2.216-32.348-6.202-11.676 34.786-44.562 59.93-83.232 59.93-9.712 0-19.050-1.608-27.79-4.534v92.94c0 48.406-39.382 87.79-87.79 87.79s-87.79-39.382-87.79-87.79v-379.726l-34.288 50.896-0.796 0.99c-33.602 41.768-92.716 51.050-137.502 21.588-23.418-15.406-39.284-39.040-44.674-66.546-5.352-27.312 0.3-54.988 15.916-77.996l153.414-241.788c39.408-57.376 104.488-91.63 174.094-91.63h171.502c123.876 0 224.654 100.78 224.654 224.654v272.724c0 48.41-39.382 87.792-87.79 87.792zM822.772 160.654c0-90.792-73.864-164.654-164.654-164.654h-171.502c-49.658 0-96.096 24.35-124.336 65.166l-153.376 241.728c-6.668 9.708-9.092 21.42-6.828 32.978 2.266 11.556 8.932 21.488 18.772 27.96 18.508 12.178 42.838 8.602 57.070-8.214l142.54-211.592v576.184c0 15.322 12.466 27.79 27.79 27.79s27.79-12.466 27.79-27.79v-299.79h60v123.596c0 15.322 12.466 27.79 27.79 27.79s27.79-12.466 27.79-27.79v-123.596h60v69.87c0 15.322 12.466 27.79 27.79 27.79s27.79-12.466 27.79-27.79v-69.87h60v12.96c0 15.324 12.466 27.792 27.79 27.792s27.79-12.466 27.79-27.792v-272.726zM416.568 960h60v-83h-60v83zM515.053 863.222l55.909 61.345 44.346-40.416-55.909-61.345-44.346 40.416zM578.55 786.758l82.643 7.686 5.556-59.742-82.643-7.686-5.556 59.742zM275.987 884.183l44.346 40.416 55.909-61.345-44.346-40.416-55.909 61.345zM224.544 734.677l5.556 59.742 82.643-7.686-5.556-59.742-82.643 7.686z" />
<glyph unicode="&#xe90c;" glyph-name="private" d="M935.966 296.258v32.742c0 65.050-53.832 117.972-120 117.972s-120-52.922-120-117.972v-32.75c-49.484-5.964-87.966-48.184-87.966-99.25v-200c0-22.092 17.908-40 40-40h336c22.092 0 40 17.908 40 40v200c0 51.088-38.518 93.324-88.034 99.258zM775.966 329c0 20.938 17.946 37.972 40 37.972 22.056 0 40-17.034 40-37.972v-32h-80v32zM944 37h-256v160c0 11.028 8.972 20 20 20h216c11.028 0 20-8.972 20-20v-160zM904 939h-784c-66.168 0-120-53.832-120-120v-664c0-88.224 71.776-160 160-160h318c22.092 0 40 17.908 40 40s-17.908 40-40 40h-318c-44.112 0-80 35.888-80 80v542h864v-184c0-22.092 17.908-40 40-40s40 17.908 40 40v306c0 66.168-53.832 120-120 120zM80 777v42c0 22.056 17.944 40 40 40h508.88c-4.44-12.52-6.88-25.978-6.88-40 0-14.772 2.698-28.92 7.602-42h-549.602zM742 779c-22.056 0-40 17.944-40 40s17.944 40 40 40 40-17.944 40-40-17.944-40-40-40zM902 779c-22.056 0-40 17.944-40 40s17.944 40 40 40 40-17.944 40-40-17.944-40-40-40z" />
<glyph unicode="&#xe90d;" glyph-name="plus" d="M512-64c-27.614 0-50 22.386-50 50v0 924c0 27.614 22.386 50 50 50s50-22.386 50-50v0-924c0-27.614-22.386-50-50-50v0zM974 398h-924c-27.614 0-50 22.386-50 50s22.386 50 50 50v0h924c27.614 0 50-22.386 50-50s-22.386-50-50-50v0z" />
<glyph unicode="&#xe90e;" glyph-name="subscribe" d="M843.816 123.576l-7.378 3.162c16.59 23.672 25.56 51.776 25.56 81.264 0 78.298-63.702 142-142 142h-415.999c-78.502 0-142-63.552-142-142 0-78.298 63.702-142 142-142h308.501l30.634-108.174c3.386-11.958 13.796-20.592 26.176-21.706 12.336-1.12 24.15 5.494 29.63 16.682l42.13 86.016 99.168 28.334c12.206 3.488 20.896 14.28 21.698 26.948 0.806 12.672-6.452 24.474-18.12 29.474zM303.999 126.002c-45.214 0-82 36.786-82 82 0 45.42 36.78 82 82 82h415.999c45.214 0 82-36.786 82-82 0-21.332-8.12-41.42-22.812-56.728l-159.37 68.302c-23.16 9.926-47.546-11.504-40.682-35.748l16.376-57.826zM711.759 92.848c-8.168-2.334-14.964-8.020-18.702-15.65l-13.54-27.644-25.512 90.090 88.62-37.978zM325.333 514.001h76.708c-1.108-61.782 48.818-112 109.958-112 61.056 0 111.070 50.142 109.96 112h76.706c45.952 0 83.334 37.382 83.334 83.334 0 26.090-12.46 51.012-33.334 66.666-19.202 14.402-30.666 37.33-30.666 61.334v28.666c0 113.588-92.41 206-206 206s-206-92.412-206-206v-28.666c0-24.002-11.464-46.93-30.666-61.334-20.872-15.654-33.334-40.576-33.334-66.666 0-45.952 37.384-83.334 83.334-83.334zM511.999 462.001c-27.744 0-51.060 22.966-49.918 52h99.84c1.142-29.004-22.152-52-49.922-52zM311.333 616.001c34.23 25.672 54.666 66.544 54.666 109.334v28.666c0 80.504 65.496 146 146 146s146-65.496 146-146v-28.666c0-42.788 20.436-83.66 54.666-109.334 5.844-4.382 9.334-11.362 9.334-18.666 0-12.866-10.466-23.334-23.334-23.334h-373.331c-12.866 0-23.334 10.466-23.334 23.334 0 7.304 3.49 14.284 9.334 18.666z" />
<glyph unicode="&#xe90f;" glyph-name="hand" d="M149.333 21.333h-117.333c-17.664 0-32 14.336-32 32v362.667c0 17.664 14.336 32 32 32 149.589 0 219.221-51.925 222.080-54.144 10.325-7.893 14.891-21.248 11.477-33.792l-85.333-315.136c-3.755-13.909-16.427-23.595-30.891-23.595zM64 85.333h60.843l72.448 267.563c-22.315 10.539-65.92 26.24-133.291 30.165zM554.667-64c-96.384 0-274.048 73.771-406.144 135.723-16 7.509-22.869 26.581-15.36 42.581 7.467 16 26.581 22.955 42.539 15.403 175.787-82.475 313.941-129.707 378.965-129.707 86.528 0 282.965 93.483 385.92 147.413-11.861 6.784-29.525 12.587-55.253 12.587-37.547 0-83.84-15.36-128.597-30.208-14.549-4.821-29.056-9.643-43.435-14.037-31.659-9.771-69.035-19.755-105.344-19.755-89.899 0-208.597 42.752-213.589 44.587-16.64 6.059-25.216 24.405-19.157 41.003 6.059 16.64 24.448 25.131 41.003 19.157 1.109-0.427 113.152-40.747 191.744-40.747 27.989 0 60.971 9.045 86.571 16.939 13.909 4.267 27.947 8.917 41.984 13.568 49.579 16.469 100.821 33.493 148.736 33.493 105.771 0 135.168-70.443 136.363-73.472 6.016-14.976-0.128-32.085-14.251-39.893-12.8-7.125-317.995-174.635-452.693-174.635zM704 113.493c-17.664 0-32 14.336-32 32v19.2c0 25.216-17.963 47.232-42.667 52.267l-410.923 84.053c-17.28 3.541-28.459 20.437-24.917 37.76s20.48 28.373 37.76 24.917l410.923-84.053c54.357-11.093 93.824-59.477 93.824-114.987v-19.2c0-17.621-14.336-31.957-32-31.957zM768 362.667c-4.267 0-8.491 0.853-12.501 2.56-9.941 4.224-243.499 105.899-243.499 315.136v171.435c0 13.696 8.704 25.856 21.717 30.293l224 76.203c6.656 2.304 13.909 2.304 20.565 0l224-76.203c13.013-4.395 21.717-16.555 21.717-30.293v-171.435c0-209.237-233.557-310.955-243.499-315.179-4.011-1.664-8.235-2.517-12.501-2.517zM576 828.885v-148.523c0-142.848 147.413-227.883 191.957-250.283 44.459 22.528 192.043 107.989 192.043 250.283v148.523l-192 65.323zM757.333 554.667c-8.448 0-16.64 3.371-22.613 9.387l-85.333 85.333c-12.501 12.501-12.501 32.768 0 45.269s32.768 12.501 45.269 0l59.264-59.264 105.813 141.141c10.496 14.123 30.592 17.024 44.8 6.4 14.123-10.624 16.981-30.677 6.357-44.8l-128-170.667c-5.547-7.424-14.037-12.075-23.339-12.715-0.725-0.085-1.451-0.085-2.219-0.085z" />
<glyph unicode="&#xe910;" glyph-name="wallet-1" d="M568.832 437.856h-484.256c-42.24-0.064-76.448-34.272-76.512-76.512v-306.304c0.032-42.24 34.272-76.48 76.512-76.512h484.256c42.24 0.032 76.48 34.272 76.512 76.512v306.304c-0.064 42.24-34.272 76.448-76.512 76.512zM597.344 55.040c-0.032-15.744-12.768-28.48-28.512-28.512h-484.256c-15.744 0.032-28.48 12.768-28.512 28.512v202.304h541.28v-202.304zM597.344 305.344h-541.28v56c0.032 15.744 12.768 28.48 28.512 28.512h484.256c15.744-0.032 28.48-12.768 28.512-28.512v-56zM386.496 81.504c19.648-0.384 47.168-3.36 48.16 24-1.024 27.36-28.512 24.384-48.16 24-31.392-0.128-31.392-47.872 0-48zM498.112 81.504c19.648-0.384 47.168-3.36 48.16 24-1.024 27.36-28.512 24.384-48.16 24-31.392-0.128-31.392-47.872 0-48zM950.080 668.192v132.416c0.032 64.416-52.096 116.672-116.512 116.864h-708.768c-64.48-0.064-116.736-52.384-116.736-116.864v-278.176c0.32-31.296 47.744-31.488 48 0 0 0 0 278.176 0 278.176-0.032 37.984 30.752 68.832 68.736 68.864h708.768c37.92-0.16 68.544-30.944 68.512-68.864v-131.392h-93.76c-81.088-1.184-145.824-67.904-144.64-148.96 1.184-79.392 65.248-143.456 144.64-144.64h93.76v-131.36c-0.032-37.824-30.688-68.48-68.512-68.544h-99.36c-31.328-0.096-31.424-47.872 0-48 0 0 99.36 0 99.36 0 64.32 0.096 116.448 52.224 116.512 116.544v132.384c37.6 4.992 65.728 36.992 65.856 74.944v141.728c-0.128 37.92-28.256 69.92-65.856 74.88zM967.936 451.584c-0.032-15.424-12.544-27.936-27.968-27.968h-131.648c-54.56 0.992-98.016 46.016-97.024 100.576 0.96 53.184 43.84 96.064 97.024 97.024h131.648c15.424 0 27.936-12.48 27.968-27.904v-141.728zM805.216 568.64c-60.736-1.024-60.736-91.392 0-92.416 60.736 1.056 60.704 91.36 0 92.416z" />
<glyph unicode="&#xe911;" glyph-name="transfer" d="M624 832v-384c0-26.496 21.504-48 48-48s48 21.504 48 48v384c0 26.496-21.504 48-48 48s-48-21.504-48-48zM400 64v384c0 26.496-21.504 48-48 48s-48-21.504-48-48v-384c0-26.496 21.504-48 48-48s48 21.504 48 48zM545.92 638.080l126.080 126.016s126.080-126.016 126.080-126.016c18.688-18.752 49.152-18.752 67.84 0 18.752 18.688 18.752 49.152 0 67.84l-160 160c-18.752 18.752-49.088 18.752-67.84 0l-160-160c-18.752-18.688-18.752-49.152 0-67.84 18.688-18.752 49.152-18.752 67.84 0zM478.080 257.92l-126.080-126.016s-126.080 126.016-126.080 126.016c-18.688 18.752-49.152 18.752-67.84 0-18.752-18.688-18.752-49.152 0-67.84l160-160c18.752-18.752 49.088-18.752 67.84 0l160 160c18.752 18.688 18.752 49.152 0 67.84-18.688 18.752-49.152 18.752-67.84 0z" />
<glyph unicode="&#xe912;" glyph-name="magnifying-glass" d="M859.414 160.844l-138.372 138.372c41.936 54.898 64.936 121.487 64.945 191.753 0 84.677-32.979 164.292-92.865 224.167-59.875 59.875-139.479 92.854-224.167 92.854-84.677 0-164.292-32.979-224.167-92.854-123.604-123.615-123.604-324.74 0-448.333 59.875-59.885 139.49-92.865 224.167-92.865 70.266 0.009 136.854 23.009 191.753 64.945l138.372-138.372c8.323-8.333 19.25-12.5 30.167-12.5s21.844 4.167 30.167 12.5c16.667 16.656 16.667 43.677 0 60.333zM305.122 327.135c-90.333 90.333-90.323 237.323 0 327.667 43.76 43.75 101.948 67.854 163.833 67.854 61.896 0 120.073-24.104 163.833-67.854 43.76-43.76 67.865-101.948 67.865-163.833 0-61.896-24.104-120.073-67.865-163.833s-101.937-67.865-163.833-67.865c-61.885 0-120.073 24.104-163.833 67.865z" />
<glyph unicode="&#xe913;" glyph-name="quote" d="M211.199 344.32c-21.119-53.119-54.399-105.6-98.879-156.16-14.080-16-16-39.039-4.48-56.959 8.961-14.080 23.68-21.76 39.68-21.76 4.48 0 8.961 0.318 13.441 1.92 94.078 27.52 313.92 125.119 320 438.080 2.238 120.639-86.080 224.318-200.961 236.158-63.68 6.4-127.039-14.398-174.080-56.639-47.039-42.561-73.92-103.361-73.92-166.721 0-105.6 74.881-198.080 179.199-217.92zM790.721 785.6c-63.361 6.4-126.721-14.398-173.76-56.639-47.041-42.561-73.922-103.361-73.922-166.721 0-105.6 74.881-198.080 179.201-217.92-21.121-53.119-54.4-105.6-98.881-156.16-14.080-16-16-39.039-4.478-56.959 8.959-14.080 23.68-21.76 39.68-21.76 4.478 0 8.959 0.318 13.439 1.92 94.080 27.52 313.92 125.119 320 438.080v4.478c0 118.721-87.359 219.84-201.279 231.68z" />
<glyph unicode="&#xe914;" glyph-name="time" d="M1018.88 504.32l-102.4-10.24c0-15.36 0-30.72 0-46.080 0-225.28-184.32-409.6-409.6-409.6s-409.6 184.32-409.6 409.6 184.32 409.6 409.6 409.6c15.36 0 30.72 0 40.96 0l10.24 102.4c-10.24 0-30.72 0-46.080 0-281.6 0-512-230.4-512-512s230.4-512 512-512 512 230.4 512 512c0 20.48 0 35.84-5.12 56.32zM563.2 499.2v256h-102.4v-358.4h256v102.4zM1024 888.32l-71.68 71.68-184.32-184.32v133.12h-102.4v-307.2h307.2v102.4h-133.12z" />
<glyph unicode="&#xe915;" glyph-name="security" d="M941.113 696.337c-0.526 27.647-1.027 53.764-1.027 79.031 0 19.795-16.043 35.843-35.843 35.843-153.287 0-269.995 44.053-367.277 138.639-13.916 13.534-36.062 13.529-49.974 0-97.272-94.586-213.961-138.639-367.239-138.639-19.795 0-35.843-16.048-35.843-35.843 0-25.271-0.497-51.398-1.027-79.050-4.913-257.283-11.642-609.645 417.356-758.344 3.804-1.319 7.771-1.979 11.737-1.979s7.938 0.66 11.737 1.979c429.031 148.704 422.312 501.075 417.399 758.363zM511.981 9.874c-367.922 133.655-362.359 426.441-357.423 685.077 0.296 15.522 0.583 30.567 0.784 45.315 143.562 6.060 258.363 49.563 356.639 135.174 98.285-85.611 213.106-129.119 356.677-135.174 0.201-14.743 0.487-29.778 0.784-45.291 4.932-258.645 10.49-551.441-357.461-685.101zM635.409 572.508l-172.996-172.986-73.821 73.821c-13.998 13.993-36.693 13.993-50.686 0-13.998-14.003-13.998-36.693 0-50.691l99.165-99.165c6.996-6.996 16.172-10.495 25.343-10.495s18.347 3.498 25.343 10.495l198.334 198.329c14.003 13.998 14.003 36.693 0.005 50.686-13.993 13.998-36.689 14.003-50.686 0.005z" />
<glyph unicode="&#xe916;" glyph-name="shuttle" d="M1022.8 883.556c-2.218 40.676-34.568 73.022-75.244 75.242-82.076 4.484-242.684 0.122-396.26-79.312-78.29-40.496-161.090-109.154-227.168-188.37-0.814-0.976-1.606-1.958-2.414-2.936l-149.96-11.584c-24.684-1.908-46.67-14.846-60.322-35.494l-102.308-154.744c-10.354-15.66-12-35.258-4.406-52.424 7.596-17.168 23.204-29.132 41.754-32.006l126.342-19.568c-0.446-2.456-0.894-4.91-1.304-7.366-4.206-25.16 4.13-51.028 22.302-69.198l175.984-175.986c15.066-15.066 35.424-23.372 56.284-23.372 4.296 0 8.616 0.354 12.916 1.072 2.456 0.41 4.91 0.858 7.366 1.304l19.568-126.344c2.874-18.55 14.838-34.16 32.002-41.754 7.142-3.16 14.7-4.72 22.224-4.72 10.566 0.002 21.058 3.078 30.202 9.124l154.744 102.31c20.65 13.654 33.586 35.64 35.49 60.322l11.584 149.958c0.978 0.808 1.962 1.6 2.938 2.414 79.218 66.078 147.878 148.878 188.372 227.17 79.438 153.582 83.792 314.192 79.314 396.262zM672.012 97.482l-148.022-97.866-19.072 123.13c62.56 18.394 124.446 47.854 183.404 87.32l-7.546-97.69c-0.47-6.094-3.666-11.524-8.764-14.894zM412.222 172.236l-175.986 175.986c-4.49 4.492-6.566 10.802-5.548 16.88 5.232 31.286 13.362 61.068 23.426 89.124l264.056-264.056c-33.696-12.070-63.878-19.27-89.068-23.482-6.088-1.012-12.39 1.058-16.88 5.548zM176.376 616.774l97.688 7.546c-39.468-58.958-68.928-120.844-87.322-183.404l-123.128 19.070 97.868 148.024c3.372 5.1 8.802 8.294 14.894 8.764zM716.686 306.202c-48.466-40.426-95.512-69.666-138.876-90.824l-298.442 298.442c27.716 56.608 61.542 103.746 90.834 138.862 61.15 73.31 137.204 136.552 208.662 173.512 140.948 72.906 289.45 76.832 365.426 72.696 10.056-0.548 18.054-8.546 18.602-18.604 4.142-75.976 0.208-224.476-72.698-365.426-36.958-71.456-100.2-147.508-173.508-208.658zM701.442 487.514c38.404 0.004 76.824 14.624 106.062 43.862 28.332 28.33 43.932 65.998 43.932 106.062s-15.602 77.732-43.932 106.062c-58.484 58.486-153.644 58.482-212.124 0-28.332-28.33-43.934-65.998-43.934-106.062s15.604-77.732 43.934-106.062c29.244-29.244 67.644-43.866 106.062-43.862zM637.802 701.076c17.544 17.546 40.59 26.318 63.636 26.318 23.048 0 46.094-8.772 63.638-26.318 16.998-16.998 26.358-39.598 26.358-63.636s-9.36-46.64-26.358-63.638c-35.088-35.090-92.186-35.088-127.276 0-16.998 16.998-26.36 39.598-26.36 63.636s9.364 46.64 26.362 63.638zM30.602 116.124c7.678 0 15.356 2.928 21.212 8.788l97.946 97.946c11.716 11.716 11.716 30.71 0 42.426-11.714 11.716-30.71 11.716-42.426 0l-97.944-97.946c-11.716-11.716-11.716-30.71 0-42.426 5.856-5.858 13.534-8.788 21.212-8.788zM239.522 175.522c-11.714 11.716-30.71 11.716-42.426 0l-188.308-188.31c-11.716-11.716-11.716-30.71 0-42.426 5.858-5.858 13.534-8.786 21.212-8.786s15.356 2.928 21.212 8.788l188.308 188.308c11.718 11.716 11.718 30.71 0.002 42.426zM286.858 85.76l-97.946-97.946c-11.716-11.716-11.716-30.71 0-42.426 5.858-5.858 13.536-8.788 21.212-8.788s15.356 2.928 21.212 8.788l97.946 97.946c11.716 11.716 11.716 30.71 0 42.426-11.714 11.716-30.71 11.716-42.424 0z" />
<glyph unicode="&#xe917;" glyph-name="money" d="M683.907 303.285c-24.262 0-44 17.084-44 38.082 0 21 19.738 38.084 44 38.084s44-17.084 44-38.084c0-11.044 8.956-20 20-20s20 8.956 20 20c0 36.65-27.308 67.466-64 75.83v10.402c0 11.044-8.956 20-20 20s-20-8.956-20-20v-10.402c-36.692-8.364-64-39.18-64-75.83 0-43.054 37.682-78.082 84-78.082 24.262 0 44-17.084 44-38.084s-19.738-38.084-44-38.084c-24.262 0-44 17.084-44 38.084 0 11.044-8.956 20-20 20s-20-8.956-20-20c0-36.65 27.308-67.466 64-75.83v-8.64c0-11.044 8.956-20 20-20s20 8.956 20 20v8.64c36.692 8.364 64 39.18 64 75.83 0 43.056-37.682 78.084-84 78.084zM902.962 422.249c-26.126 40.71-62.934 73.286-106.444 94.202-9.958 4.788-21.908 0.596-26.692-9.36-4.786-9.956-0.596-21.904 9.36-26.69 75.822-36.448 124.812-114.326 124.812-198.402 0-35.976-8.868-71.654-25.642-103.182-5.188-9.75-1.49-21.862 8.262-27.050 2.992-1.592 6.208-2.348 9.376-2.348 7.156 0 14.078 3.852 17.674 10.61 19.842 37.288 30.33 79.466 30.33 121.97 0 49.92-14.19 98.418-41.036 140.25zM715.345 541.997l-1.346 0.002c-11.044 0-20-8.954-20-20s8.956-20 20-20l1.158-0.002c0.032 0 0.062 0 0.096 0 11.002 0 19.946 8.892 19.998 19.906 0.050 11.046-8.862 20.042-19.906 20.094zM588.813 83.598c-75.82 36.45-124.81 114.328-124.81 198.402 0 35.976 8.868 71.654 25.642 103.182 5.188 9.75 1.49 21.862-8.262 27.050-9.748 5.188-21.864 1.49-27.050-8.262-19.842-37.29-30.33-79.466-30.33-121.97 0-49.92 14.19-98.416 41.036-140.25 26.126-40.71 62.934-73.286 106.444-94.204 2.794-1.344 5.746-1.978 8.652-1.978 7.448 0 14.596 4.178 18.040 11.338 4.782 9.956 0.594 21.906-9.362 26.692zM654.003 62l-1.158 0.004c-11.096 0.020-20.040-8.858-20.090-19.906-0.052-11.046 8.864-20.042 19.908-20.094l1.34-0.004c11.044 0 20 8.956 20 20s-8.956 20-20 20zM774.816 609.665c-2.434 5.8-5.416 11.266-8.886 16.336h52.068c50.728 0 92 41.272 92 92s-41.272 92-92 92h-160.16c10.182 14.804 16.16 32.714 16.16 52 0 50.728-41.272 92-92 92h-489.999c-50.728 0-92-41.272-92-92s41.272-92 92-92h160.16c-10.182-14.804-16.16-32.714-16.16-52s5.976-37.196 16.16-52h-52.16c-50.728 0-92-41.272-92-92 0-29.134 13.628-55.132 34.83-72-21.202-16.868-34.83-42.866-34.83-72s13.628-55.132 34.83-72c-21.202-16.868-34.83-42.866-34.83-72s13.628-55.132 34.83-72c-21.202-16.868-34.83-42.866-34.83-72 0-50.728 41.272-92 92-92h235.7c62.092-66.414 150.424-108.002 248.302-108.002 187.476 0 339.999 152.524 339.999 339.999 0 156.034-105.66 287.835-249.184 327.665zM817.998 770c28.674 0 52-23.328 52-52s-23.326-52-52-52h-489.999c-28.674 0-52 23.328-52 52s23.326 52 52 52h489.999zM92 810c-28.674 0-52 23.328-52 52s23.326 52 52 52h489.999c28.674 0 52-23.328 52-52s-23.326-52-52-52h-489.999zM200 626.001h489.999c8.056 0 15.77-1.872 22.69-5.224-9.46 0.794-19.024 1.222-28.688 1.222-93.89 0-179.010-38.258-240.598-99.998h-243.404c-28.672 0-52 23.328-52 52s23.328 52 52 52zM200 482.001h209.23c-22.704-31.106-40.258-66.19-51.406-104h-157.824c-28.674 0-52 23.326-52 52 0 28.672 23.326 52 52 52zM200 338.001h148.64c-3.034-18.226-4.638-36.928-4.638-56.002 0-16.292 1.178-32.312 3.404-47.998h-147.406c-28.674 0-52 23.326-52 52s23.326 52 52 52zM200 90.002c-28.674 0-52 23.326-52 52s23.326 52 52 52h155.572c10.092-37.626 26.486-72.692 47.986-104h-203.558zM684.001-18c-165.42 0-299.999 134.58-299.999 299.999s134.58 299.999 299.999 299.999 299.999-134.58 299.999-299.999-134.58-299.999-299.999-299.999z" />
<glyph unicode="&#xe918;" glyph-name="diamond" d="M826.374 921.589c-32.583 0-592.771 0-628.689 0l-197.684-269.568 514.124-677.61 509.878 677.688zM281.063 622.406l144.848-432.74-328.333 432.74zM344.164 622.406h335.907l-166.801-505.215zM743.087 622.406h183.694l-327.336-435.066zM796.048 861.752l131.641-179.51h-184.562l-58.901 179.51zM621.25 861.752l58.901-179.51h-336.246l58.901 179.51zM228.005 861.752h111.823l-58.901-179.51h-184.562z" />
<glyph unicode="&#xe919;" glyph-name="key" d="M791.997 679.877c0-35.346-28.654-64-64-64s-64 28.654-64 64c0 35.346 28.654 64 64 64s64-28.654 64-64zM1012.952 628.127c-21.36 54.388-60.528 132.861-125.83 197.853-65.070 64.768-142.711 102.816-196.387 123.332-58.928 22.522-125.89 8.326-170.589-36.164l-157.075-156.339c-46.562-46.342-59.982-117.65-33.396-177.439 8.244-18.544 17.21-36.682 26.79-54.206l-344.749-344.747c-7.502-7.502-11.716-17.676-11.716-28.286v-175.999c0-22.092 17.908-40 40-40h175.999c22.092 0 40 17.908 40 40v72l72 0.002c22.092 0 40 17.908 40 40v71.998h72c22.092 0 40 17.908 40 40s-17.908 40-40 40h-112c-22.092 0-40-17.908-40-40v-71.998l-72-0.002c-22.092 0-40-17.908-40-40v-72h-96v119.432l354.709 354.707c13.032 13.032 15.474 33.278 5.916 49.034-13.862 22.848-26.596 47.264-37.846 72.57-13.198 29.682-6.474 65.14 16.732 88.238l157.073 156.337c22.426 22.318 56.022 29.436 85.596 18.136 46.444-17.752 113.38-50.428 168.511-105.304 55.47-55.208 89.24-123.134 107.8-170.393 11.582-29.496 4.544-63.006-17.93-85.374l-158.971-158.227c-23.15-23.038-57.702-29.774-88.032-17.16-25.014 10.404-49.24 22.764-72 36.734-18.826 11.556-43.458 5.66-55.014-13.168s-5.662-43.46 13.166-55.016c26.304-16.144 54.272-30.414 83.124-42.414 60.284-25.078 129.049-11.6 175.189 34.322l158.971 158.225c45.090 44.878 59.204 112.124 35.958 171.317z" />
<glyph unicode="&#xe91a;" glyph-name="minus-sign" d="M61.438 386.554h901.124c33.939 0 61.446 27.508 61.446 61.455 0 33.939-27.499 61.446-61.446 61.446h-901.124c-33.93-0.008-61.438-27.516-61.438-61.455s27.508-61.446 61.438-61.446z" />
<glyph unicode="&#xe91b;" glyph-name="user" d="M512 960c-148.878 0-270-121.122-270-270s121.122-270 270-270 270 121.122 270 270-121.122 270-270 270zM847.932 243.61c-73.92 75.056-171.914 116.39-275.932 116.39h-120c-104.016 0-202.012-41.334-275.932-116.39-73.558-74.688-114.068-173.276-114.068-277.61 0-16.568 13.432-30 30-30h840c16.568 0 30 13.432 30 30 0 104.334-40.51 202.922-114.068 277.61z" />
<glyph unicode="&#xe91c;" glyph-name="world" d="M0 478h212.772c1.97 75.11 11.154 145.87 26.47 210h-176.996c-33.876-63.23-57.818-134.48-62.246-210zM212.772 418h-212.772c4.428-75.52 28.37-146.77 62.246-210h176.998c-15.316 64.13-24.502 134.89-26.472 210zM482 478v210h-180.722c-16.42-63.552-26.364-134.956-28.538-210zM482 748v212c-65.694-18.348-123.886-102.286-162.29-212zM482-64v212h-162.29c38.404-109.714 96.596-193.652 162.29-212zM542 960v-212h162.29c-38.404 109.714-96.596 193.652-162.29 212zM751.26 478c-2.176 75.044-12.118 146.448-28.538 210h-180.722v-210zM482 418h-209.26c2.176-75.048 12.118-146.448 28.538-210h180.722zM768.022 748h155.5c-62.098 84.946-149.52 156.71-251.368 190.514 39.142-46.208 71.88-115.694 95.868-190.514zM255.978 148h-155.5c62.098-84.946 149.52-156.71 251.368-190.514-39.142 46.208-71.88 115.694-95.868 190.514zM255.978 748c23.986 74.82 56.726 144.306 95.866 190.514-101.846-33.804-189.268-105.568-251.366-190.514zM768.022 148c-23.986-74.82-56.726-144.306-95.866-190.514 101.846 33.804 189.268 105.568 251.368 190.514zM542 418v-210h180.722c16.42 63.552 26.364 134.952 28.538 210zM784.758 688c15.314-64.13 24.5-134.89 26.47-210h212.772c-4.428 75.52-28.37 146.77-62.246 210zM542 148v-212c65.694 18.348 123.886 102.286 162.29 212zM1024 418h-212.772c-1.97-75.11-11.154-145.87-26.47-210h176.998c33.874 63.23 57.816 134.48 62.244 210z" />
<glyph unicode="&#xe91d;" glyph-name="multimedia-option" d="M195.038 955.904l633.924-507.904-633.924-507.904z" />
<glyph unicode="&#xe91e;" glyph-name="pin" d="M512 857.6c-180.973 0-327.68-146.707-327.68-327.68v0c-0.001-0.319-0.002-0.696-0.002-1.074 0-84.64 32.374-161.719 85.415-219.529l-0.216 0.239 226.918-263.987c3.779-4.4 9.348-7.17 15.565-7.17s11.786 2.77 15.542 7.142l0.023 0.027 226.918 263.987c52.825 57.572 85.199 134.65 85.199 219.291 0 0.378-0.001 0.755-0.002 1.133v-0.059c0 180.973-146.707 327.68-327.68 327.68v0zM723.354 336.179l-211.354-245.965-211.354 245.76c-46.726 50.843-75.366 118.95-75.366 193.747 0 158.351 128.369 286.72 286.72 286.72s286.72-128.369 286.72-286.72c0-74.797-28.641-142.904-75.554-193.954l0.187 0.207zM512 673.28c-79.176 0-143.36-64.184-143.36-143.36s64.184-143.36 143.36-143.36c79.176 0 143.36 64.184 143.36 143.36v0c0 79.176-64.184 143.36-143.36 143.36v0zM512 427.52c-56.554 0-102.4 45.846-102.4 102.4s45.846 102.4 102.4 102.4c56.554 0 102.4-45.846 102.4-102.4v0c0-56.554-45.846-102.4-102.4-102.4v0z" />
<glyph unicode="&#xe91f;" glyph-name="paper-plane" d="M874.667 106.667c-3.499 0-6.997 0.597-10.325 1.707l-842.667 288c-12.117 4.181-20.565 15.104-21.589 27.861-0.939 12.757 5.76 24.875 17.067 30.805l960 501.333c10.709 5.504 23.637 4.651 33.365-2.304 9.813-6.997 14.891-18.859 13.141-30.805l-117.333-789.333c-1.408-9.387-6.912-17.664-15.061-22.613-5.035-3.072-10.795-4.651-16.597-4.651zM112.896 432.853l735.744-251.477 102.443 689.152zM405.333-21.333c-3.328 0-6.699 0.512-9.941 1.579-13.184 4.352-22.059 16.597-22.059 30.421v288c0 8.064 3.072 15.915 8.576 21.845l586.667 629.333c12.032 12.971 32.384 13.611 45.269 1.579 12.928-12.032 13.611-32.299 1.579-45.269l-578.091-620.075v-177.835l106.795 145.365c10.453 14.165 30.507 17.323 44.757 6.827 14.251-10.453 17.28-30.507 6.827-44.757l-164.565-224c-6.187-8.32-15.829-13.013-25.813-13.013z" />
<glyph unicode="&#xe920;" glyph-name="24-hours" d="M692.286 411.714c15.62 15.622 15.62 40.948 0 56.568l-68.286 68.284v143.432c0 22.092-17.908 40-40 40s-40-17.908-40-40v-160c0-10.608 4.214-20.784 11.714-28.284l80-80c7.81-7.81 18.048-11.716 28.286-11.716s20.474 3.906 28.286 11.716zM313.392 701.962l-56.566 56.566c-46.792 46.786-122.92 46.784-169.704 0l-28.358-28.358c-65.504-65.502-77.608-166.47-29.434-245.534 45.752-75.084 122.36-186.656 227.496-291.794 105.174-105.172 216.778-181.792 291.878-227.548 78.718-47.958 179.704-36.266 245.45 29.484l28.36 28.358c46.788 46.788 46.788 122.918 0 169.706l-56.57 56.568c-27.408 27.408-84.888 64.5-161.932 4.952-16.706-12.91-37.876-13.766-52.686-2.138-44.73 35.13-86.718 72.25-124.792 110.324-38.182 38.182-75.402 80.3-110.628 125.182-11.57 14.744-10.892 35.678 1.69 52.094 59.622 77.794 22.956 134.976-4.204 162.138zM369.964 305.978c40.324-40.322 84.718-79.576 131.952-116.67 43.44-34.116 105.54-33.392 151.018 1.756 27.924 21.58 40.45 17.77 56.442 1.778l56.568-56.568c15.598-15.596 15.598-40.972 0.002-56.568l-28.36-28.358c-39.31-39.314-99.866-46.608-147.258-17.734-71.374 43.484-177.356 116.218-276.932 215.796-99.546 99.544-172.272 205.498-215.75 276.854-28.902 47.436-21.628 108.024 17.686 147.338l28.36 28.358c7.796 7.798 18.040 11.696 28.284 11.696 10.242 0 20.486-3.898 28.284-11.696l56.566-56.566c13.552-13.554 21.292-25.568-2.726-56.904-34.61-45.158-35.070-106.902-1.124-150.152 37.19-47.392 76.552-91.922 116.988-132.36zM584 959.998c-103.52 0-204.088-36.658-283.176-103.222-16.902-14.224-19.072-39.458-4.848-56.36 14.226-16.904 39.46-19.072 56.362-4.846 64.69 54.444 146.962 84.428 231.662 84.428 198.504 0 360-161.496 360-360 0-84.714-29.994-166.998-84.458-231.694-14.226-16.9-12.058-42.134 4.842-56.362 17.010-14.32 42.226-11.95 56.362 4.84 66.584 79.096 103.254 179.678 103.254 283.216 0 117.528-45.768 228.022-128.874 311.126-83.104 83.106-193.596 128.874-311.126 128.874z" />
<glyph unicode="&#xe921;" glyph-name="desktop-computer" d="M949.333 789.333h-138.667c-23.552 0-42.667-19.115-42.667-42.667s19.115-42.667 42.667-42.667h128v-512h-853.333v512h128c23.552 0 42.667 19.115 42.667 42.667s-19.115 42.667-42.667 42.667h-138.667c-41.216 0-74.667-33.451-74.667-74.667v-533.333c0-41.216 33.451-74.667 74.667-74.667h352v-85.333h-85.333c-23.552 0-42.667-19.115-42.667-42.667s19.115-42.667 42.667-42.667h341.333c23.595 0 42.667 19.115 42.667 42.667s-19.072 42.667-42.667 42.667h-85.333v85.333h352c41.216 0 74.667 33.451 74.667 74.667v533.333c0 41.216-33.451 74.667-74.667 74.667zM669.995 726.656c0.811 6.613 2.005 13.141 2.005 20.011s-1.195 13.397-2.005 20.011l38.443 29.099c8.576 6.485 10.965 18.347 5.589 27.691l-34.517 59.733c-5.376 9.301-16.853 13.184-26.752 9.003l-44.245-18.645c-10.795 8.235-22.272 15.488-34.944 20.779l-5.888 46.976c-1.365 10.667-10.411 18.688-21.163 18.688h-68.992c-10.752 0-19.84-8.021-21.163-18.688l-5.888-46.976c-12.715-5.291-24.192-12.587-34.987-20.779l-44.203 18.645c-9.941 4.181-21.419 0.341-26.795-9.003l-34.475-59.733c-5.376-9.301-2.987-21.163 5.589-27.691l38.443-29.099c-0.853-6.613-2.048-13.141-2.048-20.011s1.195-13.397 2.005-20.011l-38.4-29.099c-8.576-6.485-11.008-18.347-5.589-27.691l34.475-59.733c5.376-9.344 16.853-13.184 26.795-9.003l44.245 18.688c10.795-8.235 22.272-15.488 34.944-20.779l5.888-46.976c1.323-10.709 10.368-18.731 21.12-18.731h68.992c10.752 0 19.84 8.021 21.163 18.688l5.888 46.976c12.672 5.291 24.192 12.587 34.944 20.779l44.245-18.645c9.941-4.181 21.419-0.341 26.795 9.003l34.475 59.733c5.376 9.301 2.987 21.163-5.589 27.691zM512 661.333c-47.147 0-85.333 38.187-85.333 85.333s38.187 85.333 85.333 85.333 85.333-38.187 85.333-85.333-38.187-85.333-85.333-85.333z" />
<glyph unicode="&#xe922;" glyph-name="right-arrow" d="M1012.268 476.314c-0.012 0.012-0.022 0.026-0.036 0.038l-209.008 208c-15.658 15.582-40.984 15.524-56.57-0.136-15.584-15.658-15.524-40.984 0.134-56.568l140.328-139.648h-847.116c-22.092 0-40-17.908-40-40s17.908-40 40-40h847.114l-140.324-139.648c-15.658-15.584-15.718-40.91-0.134-56.568 15.586-15.662 40.914-15.716 56.57-0.136l209.008 208c0.012 0.012 0.022 0.026 0.036 0.038 15.666 15.636 15.616 41.044-0.002 56.628z" />
<glyph unicode="&#xe923;" glyph-name="phone-call" d="M809.283 325.668c-20.964 21.828-46.25 33.499-73.049 33.499-26.583 0-52.085-11.454-73.914-33.283l-68.295-68.078c-5.619 3.026-11.238 5.835-16.641 8.645-7.78 3.89-15.129 7.564-21.396 11.454-63.972 40.631-122.109 93.581-177.869 162.092-27.015 34.147-45.17 62.892-58.353 92.068 17.722 16.209 34.147 33.067 50.14 49.276 6.051 6.051 12.103 12.319 18.154 18.37 45.386 45.386 45.386 104.171 0 149.557l-59.001 59.001c-6.7 6.7-13.616 13.616-20.099 20.532-12.967 13.4-26.583 27.231-40.631 40.199-20.964 20.748-46.034 31.77-72.401 31.77s-51.869-11.022-73.482-31.77c-0.216-0.216-0.216-0.216-0.432-0.432l-73.482-74.13c-27.664-27.664-43.441-61.379-46.899-100.497-5.187-63.108 13.4-121.893 27.664-160.363 35.012-94.445 87.313-181.975 165.333-275.772 94.662-113.032 208.558-202.29 338.664-265.182 49.708-23.557 116.058-51.437 190.188-56.192 4.539-0.216 9.293-0.432 13.616-0.432 49.924 0 91.852 17.938 124.703 53.598 0.216 0.432 0.648 0.648 0.864 1.081 11.238 13.616 24.206 25.935 37.821 39.118 9.293 8.861 18.803 18.154 28.096 27.88 21.396 22.261 32.634 48.195 32.634 74.778 0 26.799-11.454 52.518-33.283 74.13l-118.651 119.083zM886.654 98.092c-0.216 0-0.216-0.216 0 0-8.429-9.077-17.074-17.29-26.367-26.367-14.048-13.4-28.312-27.448-41.712-43.224-21.828-23.341-47.547-34.363-81.262-34.363-3.242 0-6.7 0-9.942 0.216-64.188 4.106-123.838 29.176-168.575 50.573-122.325 59.217-229.738 143.289-318.996 249.837-73.698 88.826-122.974 170.953-155.608 259.131-20.099 53.814-27.448 95.742-24.206 135.293 2.161 25.286 11.887 46.25 29.825 64.188l73.698 73.698c10.59 9.942 21.828 15.345 32.851 15.345 13.616 0 24.638-8.213 31.554-15.129 0.216-0.216 0.432-0.432 0.648-0.648 13.183-12.319 25.719-25.070 38.902-38.686 6.7-6.916 13.616-13.832 20.532-20.964l59.001-59.001c22.909-22.909 22.909-44.089 0-66.998-6.268-6.268-12.319-12.535-18.587-18.587-18.154-18.587-35.444-35.876-54.247-52.734-0.432-0.432-0.864-0.648-1.081-1.081-18.587-18.587-15.129-36.741-11.238-49.060 0.216-0.648 0.432-1.297 0.648-1.945 15.345-37.173 36.957-72.185 69.807-113.896l0.216-0.216c59.65-73.482 122.541-130.754 191.917-174.627 8.861-5.619 17.938-10.158 26.583-14.48 7.78-3.89 15.129-7.564 21.396-11.454 0.864-0.432 1.729-1.081 2.593-1.513 7.348-3.674 14.264-5.403 21.396-5.403 17.938 0 29.176 11.238 32.851 14.912l73.914 73.914c7.348 7.348 19.019 16.209 32.634 16.209 13.4 0 24.422-8.429 31.122-15.777 0.216-0.216 0.216-0.216 0.432-0.432l119.083-119.083c22.261-22.044 22.261-44.737 0.216-67.646zM553.394 716.417c56.624-9.509 108.061-36.309 149.124-77.372s67.646-92.5 77.372-149.124c2.377-14.264 14.696-24.206 28.744-24.206 1.729 0 3.242 0.216 4.971 0.432 15.993 2.593 26.583 17.722 23.99 33.715-11.671 68.511-44.089 130.97-93.581 180.462s-111.951 81.91-180.462 93.581c-15.993 2.593-30.905-7.997-33.715-23.773s7.564-31.122 23.557-33.715zM1022.811 508.292c-19.235 112.816-72.401 215.474-154.095 297.168s-184.352 134.86-297.168 154.095c-15.777 2.81-30.689-7.997-33.499-23.773-2.593-15.993 7.997-30.905 23.99-33.715 100.713-17.074 192.565-64.837 265.614-137.67 73.049-73.049 120.596-164.901 137.67-265.614 2.377-14.264 14.696-24.206 28.744-24.206 1.729 0 3.242 0.216 4.971 0.432 15.777 2.377 26.583 17.506 23.773 33.283z" />
<glyph unicode="&#xe924;" glyph-name="downward-arrow" d="M878.737 635.25c-2.5 5.922-8.297 9.773-14.734 9.773l-704-0.008c-6.43 0-12.234-3.852-14.742-9.773-2.5-5.922-1.211-12.773 3.273-17.383l352-362.039c3.008-3.094 7.148-4.844 11.469-4.844s8.461 1.75 11.469 4.844l352 362.047c4.484 4.617 5.766 11.461 3.266 17.383z" />
</font>
</defs>
</svg>
